<svg xmlns="http://www.w3.org/2000/svg">
<defs>
<font id="FontID0" fontStyle="normal" fontVariant="normal" fontWeight="400" fullFontName="Arial" horiz-adv-x="90" horiz-origin-x="0" horiz-origin-y="0" vert-adv-y="90" vert-origin-x="45" vert-origin-y="90"><font-face id="font-face7" font-family="Arial"/><missing-glyph id="missing-glyph9"><path id="path11" d="M0 0z"/></missing-glyph><glyph id="glyph13" horiz-adv-x="585" unicode="+"><path id="path15" d="M253 116l0 199 -199 0 0 82 199 0 0 192 82 0 0 -192 192 0 0 -82 -192 0 0 -199 -82 0z"/></glyph><glyph id="glyph17" horiz-adv-x="277"><path id="path19" d="M77 0"/></glyph><glyph id="glyph21" horiz-adv-x="274" unicode=","><path id="path23" d="M95 0l0 95 95 0 0 -95c0,-47 0,-71 -24,-95 -24,-24 -24,-24 -71,-47l-24 47c24,0 48,24 48,24 23,24 23,48 23,71l-47 0z"/></glyph><glyph id="glyph25" horiz-adv-x="329" unicode="-"><path id="path27" d="M23 214l0 95 286 0 0 -95 -286 0z"/></glyph><glyph id="glyph29" horiz-adv-x="551" unicode="7"><path id="path31" d="M50 610l0 84 458 0 0 -67c-51,-51 -85,-102 -136,-187 -50,-85 -84,-169 -101,-237 -17,-68 -34,-136 -34,-203l-85 0c0,50 0,118 34,203 17,85 51,152 85,220 34,85 84,136 118,187l-339 0z"/></glyph><glyph id="glyph33" horiz-adv-x="551" unicode="6"><path id="path35" d="M491 542l-85 -17c0,34 -17,68 -34,85 -17,17 -50,34 -84,34 -34,0 -51,-17 -68,-34 -34,-17 -51,-34 -68,-85 -17,-34 -34,-85 -34,-153 34,17 51,51 85,68 34,17 68,17 85,17 67,0 118,-17 152,-68 51,-34 68,-84 68,-152 0,-51 -17,-85 -34,-136 -17,-34 -51,-68 -85,-85 -17,-16 -67,-32 -101,-32 -85,0 -136,32 -187,83 -34,51 -68,136 -68,271 0,136 34,238 85,289 34,50 102,84 170,84 67,0 101,-17 135,-50 34,-34 68,-68 68,-119zm-356 -305c0,-34 0,-68 17,-102 17,-17 34,-34 51,-51 34,-17 51,-17 85,-17 34,0 67,0 84,34 34,34 51,68 51,119 0,51 -17,85 -51,118 -17,34 -50,51 -101,51 -34,0 -68,-17 -85,-51 -34,-33 -51,-67 -51,-101z"/></glyph><glyph id="glyph37" horiz-adv-x="279" unicode="4"><path id="path39" d="M155 500l0 86 -155 0 0 51 172 225 34 0 0 -225 52 0 0 -51 -52 0 0 -86 -51 0zm0 137l0 156 -104 -156 104 0z"/></glyph><glyph id="glyph41" horiz-adv-x="551" unicode="3"><path id="path43" d="M33 186l102 17c0,-51 17,-85 51,-119 17,-17 51,-17 85,-17 34,0 67,0 101,34 34,34 34,68 34,102 0,51 0,85 -34,102 -17,33 -50,33 -101,33 -17,0 -34,0 -51,0l0 68c17,0 17,0 17,0 34,0 68,17 101,34 34,17 51,51 51,85 0,34 -17,68 -34,85 -33,17 -50,34 -84,34 -34,0 -68,-17 -85,-34 -34,-17 -51,-51 -51,-102l-85 17c17,68 34,102 68,136 34,33 85,50 153,50 34,0 67,0 101,-17 34,-17 51,-50 68,-67 17,-34 34,-68 34,-102 0,-34 -17,-51 -34,-85 -17,-17 -34,-34 -68,-51 51,-17 68,-34 102,-67 17,-34 34,-68 34,-119 0,-51 -17,-102 -68,-153 -51,-34 -102,-66 -169,-66 -68,0 -119,16 -153,66 -51,34 -68,85 -85,136z"/></glyph><glyph id="glyph45" horiz-adv-x="559" unicode="0"><path id="path47" d="M34 362c0,86 17,155 34,206 18,52 35,87 69,104 35,34 87,52 138,52 35,0 69,-18 104,-18 34,-17 52,-51 69,-69 17,-34 34,-69 52,-120 0,-35 17,-86 17,-155 0,-87 -17,-156 -35,-207 -17,-52 -34,-104 -69,-121 -34,-34 -86,-51 -138,-51 -69,0 -120,34 -155,85 -52,52 -86,156 -86,294zm103 0c0,-121 0,-207 35,-242 34,-34 69,-69 103,-69 35,0 69,35 104,69 34,35 34,121 34,242 0,103 0,189 -34,224 -35,51 -69,69 -104,69 -34,0 -69,-18 -103,-52 -17,-52 -35,-138 -35,-241z"/></glyph><glyph id="glyph49" horiz-adv-x="551" unicode="2"><path id="path51" d="M491 84l0 -84 -458 0c0,16 0,33 0,67 17,17 34,51 68,85 17,34 68,68 102,102 85,68 135,118 169,152 17,51 34,85 34,119 0,34 -17,51 -34,85 -34,17 -50,34 -101,34 -34,0 -68,-17 -102,-34 -17,-34 -34,-68 -34,-119l-85 17c0,68 17,119 68,153 34,33 85,50 153,50 67,0 135,-17 169,-50 34,-51 51,-85 51,-153 0,-17 0,-51 -17,-85 0,-17 -17,-51 -51,-85 -34,-16 -68,-67 -135,-118 -51,-51 -85,-68 -102,-85 -17,-17 -34,-34 -34,-51l339 0z"/></glyph><glyph id="glyph53" horiz-adv-x="583" unicode="="><path id="path55" d="M529 422l-476 0 0 82 476 0 0 -82zm0 -219l-476 0 0 83 476 0 0 -83z"/></glyph><glyph id="glyph57" horiz-adv-x="549" unicode="9"><path id="path59" d="M47 166l95 0c0,-24 24,-71 24,-71 24,-24 48,-48 95,-48 24,0 48,24 72,24 0,24 24,24 47,48 0,23 24,47 24,95 0,24 24,71 24,95 0,0 0,24 0,24 -24,-24 -48,-48 -71,-72 -48,-23 -72,-23 -96,-23 -71,0 -119,23 -166,71 -24,48 -48,95 -48,167 0,71 24,119 48,166 47,48 95,72 166,72 48,0 96,-24 119,-48 48,-24 72,-47 96,-95 24,-48 24,-119 24,-214 0,-72 0,-143 -24,-215 -24,-47 -48,-95 -96,-119 -23,-23 -71,-46 -119,-46 -71,0 -119,23 -142,46 -48,48 -48,96 -72,143zm357 310c0,47 0,95 -24,119 -47,24 -71,47 -95,47 -47,0 -95,-23 -119,-47 -24,-48 -47,-72 -47,-119 0,-48 23,-96 47,-119 24,-24 72,-48 95,-48 48,0 72,24 119,48 24,23 24,71 24,119z"/></glyph><glyph id="glyph61" horiz-adv-x="551" unicode="5"><path id="path63" d="M33 186l102 0c0,-34 17,-68 51,-102 17,-17 51,-17 85,-17 34,0 67,0 101,34 34,34 51,85 51,136 0,51 -17,85 -51,118 -17,17 -67,34 -101,34 -34,0 -51,0 -85,-17 -17,-17 -34,-34 -51,-50l-85 16 68 356 356 0 0 -84 -271 0 -51 -187c51,34 85,51 136,51 67,0 118,-17 152,-68 51,-51 68,-101 68,-169 0,-68 -17,-119 -51,-170 -51,-51 -102,-83 -186,-83 -68,0 -119,16 -153,49 -51,51 -68,85 -85,153z"/></glyph><glyph id="glyph65" horiz-adv-x="279" unicode="1"><path id="path67" d="M189 500l-52 0 0 275c0,0 -17,-17 -34,-17 -17,-17 -35,-17 -52,-34l0 51c35,18 52,18 69,35 17,17 35,34 35,52l34 0 0 -362z"/></glyph><glyph id="glyph69" horiz-adv-x="726" unicode="H"><path id="path71" d="M86 0l0 724 86 0 0 -293 379 0 0 293 86 0 0 -724 -86 0 0 344 -379 0 0 -344 -86 0z"/></glyph><glyph id="glyph73" horiz-adv-x="188" unicode="E"><path id="path75" d="M24 0l0 203 145 0 0 -24 -121 0 0 -63 112 0 0 -24 -112 0 0 -68 126 0 0 -24 -150 0z"/></glyph><glyph id="glyph77" horiz-adv-x="668" unicode="A"><path id="path79" d="M0 0l273 712 96 0 302 -712 -110 0 -82 219 -301 0 -83 -219 -95 0zm205 301l247 0 -83 192c-13,54 -41,109 -41,150 -13,-41 -27,-96 -41,-137l-82 -205z"/></glyph><glyph id="glyph81" horiz-adv-x="662" unicode="V"><path id="path83" d="M283 0l-283 716 100 0 183 -516c17,-50 33,-84 50,-117 0,33 17,67 33,117l200 516 84 0 -267 -716 -100 0z"/></glyph><glyph id="glyph85" horiz-adv-x="946" unicode="W"><path id="path87" d="M205 0l-192 719 96 0 110 -473c13,-48 20,-96 27,-144 21,76 34,117 34,130l137 487 117 0 102 -363c28,-89 42,-178 55,-254 7,41 21,96 35,151l116 466 96 0 -199 -719 -96 0 -150 547c-7,48 -21,76 -21,83 -7,-35 -14,-62 -20,-83l-151 -547 -96 0z"/></glyph><glyph id="glyph89" horiz-adv-x="559" unicode="h"><path id="path91" d="M68 0l0 724 87 0 0 -259c34,52 86,69 155,69 34,0 69,-17 103,-17 35,-17 52,-35 52,-69 17,-35 17,-69 17,-121l0 -327 -86 0 0 327c0,52 0,86 -17,104 -17,17 -52,34 -86,34 -35,0 -52,-17 -69,-34 -35,0 -52,-35 -52,-52 -17,-17 -17,-52 -17,-86l0 -293 -87 0z"/></glyph><glyph id="glyph93" horiz-adv-x="78" unicode="f"><path id="path95" d="M24 0l0 126 -20 0 0 19 20 0 0 15c0,9 0,19 5,24 0,5 4,10 9,15 5,4 15,4 25,4 9,0 14,0 24,0l-5 -24c-5,5 -10,5 -15,5 -4,0 -9,-5 -14,-5 -5,-5 -5,-10 -5,-19l0 -15 29 0 0 -19 -29 0 0 -126 -24 0z"/></glyph><glyph id="glyph97" horiz-adv-x="552" unicode="e"><path id="path99" d="M416 166l84 -16c0,-50 -34,-84 -67,-117 -50,-33 -100,-49 -150,-49 -83,0 -133,32 -183,66 -34,50 -67,116 -67,200 0,83 33,150 67,200 50,50 100,83 183,83 67,0 117,-33 167,-83 33,-34 66,-100 66,-184 0,-16 0,-16 0,-33l-383 0c0,-50 17,-100 33,-133 34,-17 67,-34 117,-34 33,0 50,0 83,17 17,17 34,50 50,83zm-283 134l283 0c0,50 -16,83 -33,100 -33,33 -67,50 -100,50 -50,0 -83,-17 -100,-34 -33,-33 -50,-66 -50,-116z"/></glyph><glyph id="glyph101" horiz-adv-x="559" unicode="n"><path id="path103" d="M68 0l0 517 69 0 0 -69c52,52 104,86 173,86 34,0 69,0 86,-17 35,-17 52,-35 69,-52 0,-17 17,-34 17,-52 0,-17 0,-51 0,-86l0 -327 -86 0 0 310c0,34 0,69 0,86 -17,17 -17,35 -34,52 -18,0 -52,0 -69,0 -35,0 -69,0 -104,-35 -17,-17 -34,-69 -34,-120l0 -293 -87 0z"/></glyph><glyph id="glyph105" horiz-adv-x="223" unicode="i"><path id="path107" d="M68 620l0 104 87 0 0 -104 -87 0zm0 -620l0 517 87 0 0 -517 -87 0z"/></glyph><glyph id="glyph109" horiz-adv-x="502" unicode="z"><path id="path111" d="M17 0l0 68 327 380c-34,0 -69,0 -86,0l-224 0 0 69 431 0 0 -52 -276 -328 -69 -69c52,0 86,0 121,0l241 0 0 -68 -465 0z"/></glyph></font>
</defs>
</svg>
